Kατηγορίες

ALPHA (2018) NEW 720p HD-CAM ENG SUB-24HD {ΕΝΣΩΜ.ΥΠΟΤ}

ΣΚΗΝΟΘΕΣΙΑ : Albert Hughes
ΣΕΝΑΡΙΟ : Daniele Sebastian Wiedenhaupt (screenplay by), Albert Hughes
ΗΘΟΠΟΙΟΙ : Kodi Smit-McPhee, J?hannes Haukur J?hannesson, Marcin Kowalczyk
ΕΙΔΟΣ : Adventure , Drama , Family
ΠΡΕΜΙΕΡΑ : 11 October 2018 (Greece)
ΜΕΤΑΦΡΑΣΗ : T3LL4V1S10N
iMDB: http://www.imdb.com/title/tt4244998/

Υπόθεση

Το ALPHA είναι μια επική περιπέτεια που εκτυλίσσεται στην τελευταία Εποχή των Παγετώνων στην Ευρώπη, 20.000 χρόνια πριν. Ένα νεαρό αγόρι τραυματίζεται στη διάρκεια του πρώτου του κυνηγιού με τη φυλή του. Τον αφήνουν πίσω, πιστεύοντας πως είναι νεκρός, και ξυπνά μόνος και τσακισμένος. Το αγόρι πρέπει να μάθει να επιβιώνει στην ανελέητη φύση και όταν συναντά ένα μοναχικό λύκο, εγκαταλειμμένο από την αγέλη του, τον δαμάζει. Οι δύο αναπάντεχοι σύμμαχοι θα αντιμετωπίσουν αμέτρητους κινδύνους και δυσκολίες για να γυρίσουν σπίτι πριν έρθει ο θανατηφόρος χειμώνας..

Spoiler:

Format : Matroska
Format version : Version 2
File size : 2.44 GiB
Duration : 1 h 29 min
Overall bit rate : 3 892 kb/s

Video
ID : 1
Format : AVC
Format/Info : Advanced Video Codec
Format profile : [email protected]
Format settings : CABAC / 4 Ref Frames
Format settings, CABAC : Yes
Format settings, ReFrames : 4 frames
Codec ID : V_MPEG4/ISO/AVC
Duration : 1 h 29 min
Bit rate : 3 666 kb/s
Width : 1 072 pixels
Height : 592 pixels
Display aspect ratio : 16:9
Frame rate mode : Constant
Frame rate : 29.970 (30000/1001) FPS
Color space : YUV
Chroma subsampling : 4:2:0
Bit depth : 8 bits
Scan type : Progressive
Bits/(Pixel*Frame) : 0.193
Stream size : 2.25 GiB (92%)

Audio
ID : 2
Format : AC-3
Format/Info : Audio Coding 3
Codec ID : A_AC3
Duration : 1 h 29 min
Bit rate mode : Constant
Bit rate : 224 kb/s
Channel(s) : 2 channels
Channel positions : Front: L R
Sampling rate : 48.0 kHz
Frame rate : 31.250 FPS (1536 SPF)
Bit depth : 16 bits
Compression mode : Lossy
Stream size : 144 MiB (6%)
Service kind : Complete Main
Default : Yes
Forced : No


ΑΝ ΣΑΣ ΑΡΕΣΕΙ Η ΔΟΥΛΕΙΑ ΜΟΥ ΚΑΙ ΘΕΛΕΤΕ ΝΑ ΜΕ ΣΤΗΡΙΞΕΤΕ,
ΚΑΝΤΕ ΕΝΑ ΛΟΓΑΡΙΑΣΜΟ ΓΙΑ EASYBYTEZ & UPLOADED
ΚΑΙ ΚΑΤΕΒΑΣΤΕ ΣΑΝ PREMIUM ΑΠΟ 20 ΔΙΑΦΟΡΕΤΙΚΟΥΣ HOST.

EasyBytez Premium Accounts

Για Uploaded απο Εδώ. http://ul.to/ref/3276399


Links Easybytez & Uploaded

Spoiler:

http://paste2.org/NF2cpey9

http://pastebin.com/54btTWv6

Αγαπητοί φίλοι πολλές φορές ίσως σε κάποια λίνκ σας βγάζει «Server error»
η προβληματικός πάροχος η σφάλμα plugin έχει λήξει.
Αυτό δεν σημαίνει απαραίτητα ότι τα λίνκ είναι νεκρά. Δοκιμάστε το εξής.
Πάρ΄τε τα λίνκ ή το μονό λίνκ και κατεβάστε το με Browser….Δεξί κλίκ στο λίνκ και άνοιγμα σε νέο παράθυρο…
Θα σας ανοίξει μία καρτελίτσα και εσείς θα πατήσετε αποθήκευση, όχι άνοιγμα…
Αυτόματά το λίνκ θα κατέβει και θα αποθηκευτεί στο φάκελο που εσείς έχετε επιλέξει.

2 Responses to ALPHA (2018) NEW 720p HD-CAM ENG SUB-24HD {ΕΝΣΩΜ.ΥΠΟΤ}

Αφήστε μια απάντηση

Chat - Μόνο Εγγεγραμμένοι Χρήστες
You must be signed in to post a comment
Mr.Planet
(Δευτέρα, Νοέ 12. 2018 11:47 ΜΜ)
σε ευχαριστω για τη ενημερωση takisbol ανεβηκαν νεα λινκς.
Mr.Planet
(Δευτέρα, Νοέ 12. 2018 11:46 ΜΜ)
αγαπητε kost36 η σειρα μπορει να εχει ολοκληθωθει αλλα δεν εχουν μεταφραστει τα τελευταια επεισοδια…
οπως καταλαβαινεις δεν μπορω να κανω κατι…
takisbol
(Δευτέρα, Νοέ 12. 2018 05:17 ΜΜ)
μάλλον υπάρχει πρόβλημα σε μερικά parts στην ταινία THE PREADATOR (2018) HC HDRip XviD AC3-EVO {ενσωμ.υποτ}
kost36
(Κυριακή, Νοέ 11. 2018 05:12 ΜΜ)
αγαπητέ Mr. Planet. η σειρά Taken έχει ολοκληρωθεί από τον ιούνιο. θα ήμουν ευγνώμων αν καταφέρνατε να ανεβάσετε και τα τελευταία 3 επεισόδια ευχαριστώ πολύ…
Mr.Planet
(Πέμπτη, Νοέ 8. 2018 12:19 ΠΜ)
takisbol σε ευχαριστω για την ενημερωση..

1 · 2 · 3 · 4