Kατηγορίες

TURBO / ΤΟΥΡΜΠΟ (2013) 720p BRRip x264 AC3 5.1 – ΜΕΤΑΓΛΩΤΙΣΜΕΝΟ

 

Σκηνοθεσία: David Soren
Σενάριο: Darren Lemke, Robert D. Siegel, David Soren
Παραγωγή: Lisa Stewart
Μουσική: Henry Jackman
Φωτογραφία: Chris Stover
Εταιρείες Παραγωγής: DreamWorks Animation
Διανομή: Odeon (Ελλάδα)
Χρονολογία παραγωγής: 2013
Χώρα παραγωγής: ΗΠΑ
Πρεμιέρα στην Ελλάδα: 18/7/2013
Γλώσσα: Ελληνικά
Είδος: Κινούμενα Σχέδια, Οικογενειακή
ΦΩΝΕΣ ΕΛΛΗΝΙΚΗΣ ΜΕΤΑΓΛΩΤΙΣΗΣ
Γιάννης Στεφόπουλος, Τηλέμαχος Κρεβάικας, Φώτης Πετρίδης, Χρήστος Θάνος, Αντίνοος Αλμπάνης, Δημήτρης Μαριζάς, Χρύσα Διαμαντοπούλου, Βασίλης Μηλιός και Πόπη Χατζηδημητρίου
IMDB : http://www.imdb.com/title/tt1860353/

Υπόθεση

O Turbo είναι ένα συνηθισμένο σαλιγκάρι με μεγάλα όνειρα. Θέλει να συμμετάσχει σε αγώνες ταχύτητας όπως το ίνδαλμά του ο περιβόητος Guy Gagne. Βέβαια η εμμονή του με την ταχύτητα προκαλεί αρνητικά σχόλια από τα υπόλοιπα σαλιγκάρια και φέρνει ντροπή στο μεγαλύτερο αδερφό του τον Chet. Όμως μετά από ένα σοβαρό ατύχημα, ο Turbo αποκτά υπερφυσικές δυνάμεις που του επιτρέπουν να κινείται με απίστευτη ταχύτητα. Είναι στο χέρι του πια, με τη βοήθεια των πιστών του φίλων, να κάνει πράξη τα όνειρά του. Να συμμετάσχει στον αγώνα Indy500 ως το απόλυτο αουτσάιντερ αποδεικνύοντας ότι κανένα όνειρο δεν είναι ακατόρθωτο…

Οι δημιουργοί της επιτυχημένης τριλογίας «Madagascar» και των δύο «Kung Fu Panda» μας ταξιδεύουν στον κόσμο των… γρήγορων σαλιγκαριών με το «Turbo», μια τρισδιάστατη κωμωδία υψηλών ταχυτήτων.

[ spoiler]
Format : Matroska
Format version : Version 2
File size : 1.63 GiB
Duration : 1h 35mn
Overall bit rate : 2 435 Kbps
Encoded date : UTC 2013-11-16 09:25:00
Writing application : mkvmerge v5.8.0 (‘No Sleep / Pillow’) built on Sep 2 2012 15:37:04
Writing library : libebml v1.2.3 + libmatroska v1.3.0

Video
ID : 1
Format : AVC
Format/Info : Advanced Video Codec
Format profile : [email protected]
Format settings, CABAC : Yes
Format settings, ReFrames : 3 frames
Codec ID : V_MPEG4/ISO/AVC
Duration : 1h 35mn
Bit rate : 1 794 Kbps
Width : 1 280 pixels
Height : 544 pixels
Display aspect ratio : 2.35:1
Frame rate : 23.976 fps
Color space : YUV
Chroma subsampling : 4:2:0
Bit depth : 8 bits
Scan type : Progressive
Bits/(Pixel*Frame) : 0.107
Stream size : 1.17 GiB (72%)
Writing library : x264 core 115 r1995 c1e60b9
Encoding settings : cabac=1 / ref=3 / deblock=1:0:0 / analyse=0x3:0x113 / me=hex / subme=7 / psy=1 / psy_rd=1.00:0.00 / mixed_ref=1 / me_range=16 / chroma_me=1 / trellis=2 / 8x8dct=1 / cqm=0 / deadzone=21,11 / fast_pskip=0 / chroma_qp_offset=-2 / threads=6 / sliced_threads=0 / nr=0 / decimate=1 / interlaced=0 / bluray_compat=0 / constrained_intra=0 / bframes=3 / b_pyramid=0 / b_adapt=2 / b_bias=0 / direct=1 / weightb=1 / open_gop=0 / weightp=2 / keyint=250 / keyint_min=23 / scenecut=40 / intra_refresh=0 / rc_lookahead=50 / rc=2pass / mbtree=1 / bitrate=1794 / ratetol=1.0 / qcomp=0.60 / qpmin=10 / qpmax=51 / qpstep=4 / cplxblur=20.0 / qblur=0.5 / vbv_maxrate=25000 / vbv_bufsize=25000 / nal_hrd=none / ip_ratio=1.40 / aq=1:1.00
Default : Yes
Forced : No

Audio
ID : 2
Format : AC-3
Format/Info : Audio Coding 3
Mode extension : CM (complete main)
Format settings, Endianness : Big
Codec ID : A_AC3
Duration : 1h 35mn
Bit rate mode : Constant
Bit rate : 640 Kbps
Channel(s) : 6 channels
Channel positions : Front: L C R, Side: L R, LFE
Sampling rate : 48.0 KHz
Bit depth : 16 bits
Compression mode : Lossy
Stream size : 438 MiB (26%)
Language : Greek
Default : Yes
Forced : No
[/spoiler]


ΑΝ ΣΑΣ ΑΡΕΣΕΙ Η ΔΟΥΛΕΙΑ ΜΟΥ ΚΑΙ ΘΕΛΕΤΕ ΝΑ ΜΕ ΣΤΗΡΙΞΕΤΕ,
ΚΑΝΤΕ ΕΝΑ ΛΟΓΑΡΙΑΣΜΟ ΓΙΑ EASYBYTEZ & UPLOADED
ΚΑΙ ΚΑΤΕΒΑΣΤΕ ΣΑΝ PREMIUM ΑΠΟ 20 ΔΙΑΦΟΡΕΤΙΚΟΥΣ HOST.

http://www.easybytez.com/free24580.html

EasyBytez Premium Accounts

Για Uploaded απο Εδώ. http://ul.to/ref/3276399


Links Easybytez & Uploaded

Spoiler:

http://paste2.org/Za5EJ2E7

http://pastebin.com/XgMgf0iu

Αγαπητοί φίλοι πολλές φορές ίσως σε κάποια λίνκ σας βγάζει «Server error»
η προβληματικός πάροχος η σφάλμα plugin έχει λήξει.
Αυτό δεν σημαίνει απαραίτητα ότι τα λίνκ είναι νεκρά. Δοκιμάστε το εξής.
Πάρ΄τε τα λίνκ ή το μονό λίνκ και κατεβάστε το με Browser….Δεξί κλίκ στο λίνκ και άνοιγμα σε νέο παράθυρο…
Θα σας ανοίξει μία καρτελίτσα και εσείς θα πατήσετε αποθήκευση, όχι άνοιγμα…
Αυτόματά το λίνκ θα κατέβει και θα αποθηκευτεί στο φάκελο που εσείς έχετε επιλέξει.

Αφήστε μια απάντηση

Chat - Μόνο Εγγεγραμμένοι Χρήστες
You must be signed in to post a comment
Mr.Planet
(Δευτέρα, Νοέ 12. 2018 11:47 ΜΜ)
σε ευχαριστω για τη ενημερωση takisbol ανεβηκαν νεα λινκς.
Mr.Planet
(Δευτέρα, Νοέ 12. 2018 11:46 ΜΜ)
αγαπητε kost36 η σειρα μπορει να εχει ολοκληθωθει αλλα δεν εχουν μεταφραστει τα τελευταια επεισοδια…
οπως καταλαβαινεις δεν μπορω να κανω κατι…
takisbol
(Δευτέρα, Νοέ 12. 2018 05:17 ΜΜ)
μάλλον υπάρχει πρόβλημα σε μερικά parts στην ταινία THE PREADATOR (2018) HC HDRip XviD AC3-EVO {ενσωμ.υποτ}
kost36
(Κυριακή, Νοέ 11. 2018 05:12 ΜΜ)
αγαπητέ Mr. Planet. η σειρά Taken έχει ολοκληρωθεί από τον ιούνιο. θα ήμουν ευγνώμων αν καταφέρνατε να ανεβάσετε και τα τελευταία 3 επεισόδια ευχαριστώ πολύ…
Mr.Planet
(Πέμπτη, Νοέ 8. 2018 12:19 ΠΜ)
takisbol σε ευχαριστω για την ενημερωση..

1 · 2 · 3 · 4