Kατηγορίες

SHOW DOGS (2018) BRRip XviD AC3-EVO {ΕΝΣΩΜ.ΥΠΟΤ}

ΣΚΗΝΟΘΕΣΙΑ : Raja Gosnell
ΣΕΝΑΡΙΟ : Max Botkin, Marc Hyman
ΗΘΟΠΟΙΟΙ : Will Arnett, Ludacris, Natasha Lyonne
ΕΙΔΟΣ : Adventure , Comedy , Family
ΠΡΕΜΙΕΡΑ : 18 May 2018 (USA)
ΜΕΤΑΦΡΑΣΗ : DVD
iMDB: http://www.imdb.com/title/tt5691024/

Υπόθεση

Η ταινία Show Dogs έχει να κάνει με έναν ντετέκτιβ και τον σκύλο παρτενέρ του, με τον δεύτερο να πηγαίνει ινκόγνιτο στην μεγαλύτερη αποστολή της καριέρας του και φυσικά τα μπλεξίματα ξεκινούν…

Spoiler:

Format : Matroska
Format version : Version 2
File size : 1.37 GiB
Duration : 1 h 30 min
Overall bit rate : 2 155 kb/s

Video
ID : 1
Format : AVC
Format/Info : Advanced Video Codec
Format profile : [email protected]
Format settings : CABAC / 4 Ref Frames
Format settings, CABAC : Yes
Format settings, ReFrames : 4 frames
Codec ID : V_MPEG4/ISO/AVC
Duration : 1 h 30 min
Bit rate : 1 705 kb/s
Width : 720 pixels
Height : 384 pixels
Display aspect ratio : 1.85:1
Frame rate mode : Constant
Frame rate : 23.976 (24000/1001) FPS
Color space : YUV
Chroma subsampling : 4:2:0
Bit depth : 8 bits
Scan type : Progressive
Bits/(Pixel*Frame) : 0.257
Stream size : 1.05 GiB (77%)

Audio
ID : 2
Format : AC-3
Format/Info : Audio Coding 3
Codec ID : A_AC3
Duration : 1 h 30 min
Bit rate mode : Constant
Bit rate : 448 kb/s
Channel(s) : 6 channels
Channel positions : Front: L C R, Side: L R, LFE
Sampling rate : 48.0 kHz
Frame rate : 31.250 FPS (1536 SPF)
Bit depth : 16 bits
Compression mode : Lossy
Stream size : 291 MiB (21%)
Service kind : Complete Main
Default : Yes
Forced : No


ΑΝ ΣΑΣ ΑΡΕΣΕΙ Η ΔΟΥΛΕΙΑ ΜΟΥ ΚΑΙ ΘΕΛΕΤΕ ΝΑ ΜΕ ΣΤΗΡΙΞΕΤΕ,
ΚΑΝΤΕ ΕΝΑ ΛΟΓΑΡΙΑΣΜΟ ΓΙΑ EASYBYTEZ & UPLOADED
ΚΑΙ ΚΑΤΕΒΑΣΤΕ ΣΑΝ PREMIUM ΑΠΟ 20 ΔΙΑΦΟΡΕΤΙΚΟΥΣ HOST.

EasyBytez Premium Accounts

Για Uploaded απο Εδώ. http://ul.to/ref/3276399


Links Easybytez & Uploaded

Spoiler:

http://paste2.org/7XZz2Ap4

Αγαπητοί φίλοι πολλές φορές ίσως σε κάποια λίνκ σας βγάζει «Server error»
η προβληματικός πάροχος η σφάλμα plugin έχει λήξει.
Αυτό δεν σημαίνει απαραίτητα ότι τα λίνκ είναι νεκρά. Δοκιμάστε το εξής.
Πάρ΄τε τα λίνκ ή το μονό λίνκ και κατεβάστε το με Browser….Δεξί κλίκ στο λίνκ και άνοιγμα σε νέο παράθυρο…
Θα σας ανοίξει μία καρτελίτσα και εσείς θα πατήσετε αποθήκευση, όχι άνοιγμα…
Αυτόματά το λίνκ θα κατέβει και θα αποθηκευτεί στο φάκελο που εσείς έχετε επιλέξει.

Αφήστε μια απάντηση

Chat - Μόνο Εγγεγραμμένοι Χρήστες
You must be signed in to post a comment
Mr.Planet
(Δευτέρα, Νοέ 12. 2018 11:47 ΜΜ)
σε ευχαριστω για τη ενημερωση takisbol ανεβηκαν νεα λινκς.
Mr.Planet
(Δευτέρα, Νοέ 12. 2018 11:46 ΜΜ)
αγαπητε kost36 η σειρα μπορει να εχει ολοκληθωθει αλλα δεν εχουν μεταφραστει τα τελευταια επεισοδια…
οπως καταλαβαινεις δεν μπορω να κανω κατι…
takisbol
(Δευτέρα, Νοέ 12. 2018 05:17 ΜΜ)
μάλλον υπάρχει πρόβλημα σε μερικά parts στην ταινία THE PREADATOR (2018) HC HDRip XviD AC3-EVO {ενσωμ.υποτ}
kost36
(Κυριακή, Νοέ 11. 2018 05:12 ΜΜ)
αγαπητέ Mr. Planet. η σειρά Taken έχει ολοκληρωθεί από τον ιούνιο. θα ήμουν ευγνώμων αν καταφέρνατε να ανεβάσετε και τα τελευταία 3 επεισόδια ευχαριστώ πολύ…
Mr.Planet
(Πέμπτη, Νοέ 8. 2018 12:19 ΠΜ)
takisbol σε ευχαριστω για την ενημερωση..

1 · 2 · 3 · 4