Kατηγορίες

THE OTHER SIDE OF THE WIND (2018) HDRip XviD AC3-EVO {ΕΝΣΩΜ.ΥΠΟΤ}

ΣΚΗΝΟΘΕΣΙΑ : Orson Welles
ΣΕΝΑΡΙΟ : Oja Kodar, Orson Welles
ΗΘΟΠΟΙΟΙ : John Huston, Robert Random, Peter Bogdanovich
ΕΙΔΟΣ : Comedy , Drama
ΠΡΕΜΙΕΡΑ : 2 November 2018 (France)
ΜΕΤΑΦΡΑΣΗ : Ελιάνα Τσακίρη
iMDB: http://www.imdb.com/title/tt0069049/

Υπόθεση

Η πλοκή της «άλλης πλευράς του ανέμου» επικεντρώνεται στο πάρτι γενεθλίων ενός 70άρη σκηνοθέτη που επιχειρεί να κάνει ένα δυναμικό comeback. Με συντακτικό που θυμίζει «Πολίτη Κέιν» η ταινία-μέσα-στην-ταινία αποκαλύπτει σιγά-σιγά τις λεπτομέρειες και τα μυστικά του παρελθόντος, μέσα από την κυνική ματιά του μέγα Γουέλς που στηλιτεύει το Χόλιγουντ και τη βιομηχανία του θεάματος…

Spoiler:

Format : AVI
Format/Info : Audio Video Interleave
File size : 1.41 GiB
Duration : 2 h 2 min
Overall bit rate : 1 648 kb/s
Writing application : VirtualDubMod 1.5.10.2 (build 2542/release)
Writing library : VirtualDubMod build 2542/release

Video
ID : 0
Format : MPEG-4 Visual
Format profile : Advanced [email protected]
Format settings : BVOP1
Format settings, BVOP : 1
Format settings, QPel : No
Format settings, GMC : No warppoints
Format settings, Matrix : Default (H.263)
Muxing mode : Packed bitstream
Codec ID : XVID
Codec ID/Hint : XviD
Duration : 2 h 2 min
Bit rate : 1 448 kb/s
Width : 720 pixels
Height : 400 pixels
Display aspect ratio : 16:9
Frame rate : 24.000 FPS
Color space : YUV
Chroma subsampling : 4:2:0
Bit depth : 8 bits
Scan type : Progressive
Compression mode : Lossy
Bits/(Pixel*Frame) : 0.209
Stream size : 1.24 GiB (88%)
Writing library : XviD 64

Audio
ID : 1
Format : AC-3
Format/Info : Audio Coding 3
Codec ID : 2000
Duration : 2 h 2 min
Bit rate mode : Constant
Bit rate : 192 kb/s
Channel(s) : 2 channels
Channel positions : Front: L R
Sampling rate : 48.0 kHz
Frame rate : 31.250 FPS (1536 SPF)
Bit depth : 16 bits
Compression mode : Lossy
Stream size : 168 MiB (12%)
Alignment : Split accross interleaves
Interleave, duration : 64 ms (1.54 video frames)
Interleave, preload duratio : 500 ms
Service kind : Complete Main


ΑΝ ΣΑΣ ΑΡΕΣΕΙ Η ΔΟΥΛΕΙΑ ΜΟΥ ΚΑΙ ΘΕΛΕΤΕ ΝΑ ΜΕ ΣΤΗΡΙΞΕΤΕ,
ΚΑΝΤΕ ΕΝΑ ΛΟΓΑΡΙΑΣΜΟ ΓΙΑ EASYBYTEZ & UPLOADED
ΚΑΙ ΚΑΤΕΒΑΣΤΕ ΣΑΝ PREMIUM ΑΠΟ 20 ΔΙΑΦΟΡΕΤΙΚΟΥΣ HOST.

EasyBytez Premium Accounts

Για Uploaded απο Εδώ. http://ul.to/ref/3276399


Links Easybytez & Uploaded

Spoiler:

http://paste2.org/ncHZh2a4

 

Αγαπητοί φίλοι πολλές φορές ίσως σε κάποια λίνκ σας βγάζει «Server error»
η προβληματικός πάροχος η σφάλμα plugin έχει λήξει.
Αυτό δεν σημαίνει απαραίτητα ότι τα λίνκ είναι νεκρά. Δοκιμάστε το εξής.
Πάρ΄τε τα λίνκ ή το μονό λίνκ και κατεβάστε το με Browser….Δεξί κλίκ στο λίνκ και άνοιγμα σε νέο παράθυρο…
Θα σας ανοίξει μία καρτελίτσα και εσείς θα πατήσετε αποθήκευση, όχι άνοιγμα…
Αυτόματά το λίνκ θα κατέβει και θα αποθηκευτεί στο φάκελο που εσείς έχετε επιλέξει.

Αφήστε μια απάντηση

Chat - Μόνο Εγγεγραμμένοι Χρήστες
You must be signed in to post a comment
Mr.Planet
(Δευτέρα, Νοέ 12. 2018 11:47 ΜΜ)
σε ευχαριστω για τη ενημερωση takisbol ανεβηκαν νεα λινκς.
Mr.Planet
(Δευτέρα, Νοέ 12. 2018 11:46 ΜΜ)
αγαπητε kost36 η σειρα μπορει να εχει ολοκληθωθει αλλα δεν εχουν μεταφραστει τα τελευταια επεισοδια…
οπως καταλαβαινεις δεν μπορω να κανω κατι…
takisbol
(Δευτέρα, Νοέ 12. 2018 05:17 ΜΜ)
μάλλον υπάρχει πρόβλημα σε μερικά parts στην ταινία THE PREADATOR (2018) HC HDRip XviD AC3-EVO {ενσωμ.υποτ}
kost36
(Κυριακή, Νοέ 11. 2018 05:12 ΜΜ)
αγαπητέ Mr. Planet. η σειρά Taken έχει ολοκληρωθεί από τον ιούνιο. θα ήμουν ευγνώμων αν καταφέρνατε να ανεβάσετε και τα τελευταία 3 επεισόδια ευχαριστώ πολύ…
Mr.Planet
(Πέμπτη, Νοέ 8. 2018 12:19 ΠΜ)
takisbol σε ευχαριστω για την ενημερωση..

1 · 2 · 3 · 4