Kατηγορίες

CHRISTOFHER ROBIN (2018) BRRip XviD AC3-XVID {ΕΝΣΩΜ.ΥΠΟΤ}

ΣΚΗΝΟΘΕΣΙΑ : Marc Forster
ΣΕΝΑΡΙΟ : Alex Ross Perry (screenplay by), Tom McCarthy
ΗΘΟΠΟΙΟΙ : Ewan McGregor, Hayley Atwell, Bronte Carmichael
ΕΙΔΟΣ : Animation , Adventure , Comedy
ΠΡΕΜΙΕΡΑ : 6 September 2018 (Greece)
ΜΕΤΑΦΡΑΣΗ : Άγνωστος
iMDB: http://www.imdb.com/title/tt4575576/

Υπόθεση

Ο ενήλικας Κρίστοφερ δουλεύει συνέχεια, πληρώνεται λίγο και το επαγγελματικό του μέλλον είναι αβέβαιο. Έχει δική του οικογένεια, αλλά εργάζεται τόσο πολύ που έχει ελάχιστο χρόνο για τη γυναίκα και την κόρη του. Έχει ξεχάσει την ειδυλλιακή παιδική του ηλικία, την οποία πέρασε παρέα με ένα λούτρινο αρκουδάκι που λάτρευε το μέλι και όλους τους φίλους του. Όταν όμως ο Γουίνι, ταλαιπωρημένος από χρόνια παιχνιδιού και αγκαλιάς, τον ξαναβρίσκει, η φιλία τους αναθερμαίνεται, θυμίζοντας στον Κρίστοφερ τις ατελείωτες ημέρες παιδικής ανεμελιάς που χαρακτήρισαν την πρώιμη ζωή του, όταν το να μην κάνεις τίποτα ήταν το καλύτερο πράγμα απ’ όλα. Μετά από ένα ατυχές συμβάν με το χαρτοφύλακα του Κρίστοφερ Ρόμπιν, ο Γουίνι, το Γουρουνάκι, ο Τίγρης και ο Γκαρής βγαίνουν από το δάσος και πάνε στο Λονδίνο για να βρουν τα χαμένα υπάρχοντα… γιατί αυτό κάνουν οι καλύτεροι φίλοι, πάντα.

Spoiler:

Format : AVI
Format/Info : Audio Video Interleave
File size : 1.49 GiB
Duration : 1 h 43 min
Overall bit rate : 2 052 kb/s
Writing application : VirtualDubMod 1.5.10.2 (build 2542/release)
Writing library : VirtualDubMod build 2542/release

Video
ID : 0
Format : MPEG-4 Visual
Format profile : Advanced [email protected]
Format settings : BVOP1
Format settings, BVOP : 1
Format settings, QPel : No
Format settings, GMC : No warppoints
Format settings, Matrix : Default (H.263)
Muxing mode : Packed bitstream
Codec ID : XVID
Codec ID/Hint : XviD
Duration : 1 h 43 min
Bit rate : 1 597 kb/s
Width : 720 pixels
Height : 302 pixels
Display aspect ratio : 2.40:1
Frame rate : 23.976 (24000/1001) FPS
Color space : YUV
Chroma subsampling : 4:2:0
Bit depth : 8 bits
Scan type : Progressive
Compression mode : Lossy
Bits/(Pixel*Frame) : 0.306
Stream size : 1.16 GiB (78%)
Writing library : XviD 64

Audio
ID : 1
Format : AC-3
Format/Info : Audio Coding 3
Codec ID : 2000
Duration : 1 h 43 min
Bit rate mode : Constant
Bit rate : 448 kb/s
Channel(s) : 6 channels
Channel positions : Front: L C R, Side: L R, LFE
Sampling rate : 48.0 kHz
Frame rate : 31.250 FPS (1536 SPF)
Bit depth : 16 bits
Compression mode : Lossy
Stream size : 333 MiB (22%)
Alignment : Split accross interleaves
Interleave, duration : 64 ms (1.53 video frames)
Interleave, preload duratio : 500 ms
Service kind : Complete Main


ΑΝ ΣΑΣ ΑΡΕΣΕΙ Η ΔΟΥΛΕΙΑ ΜΟΥ ΚΑΙ ΘΕΛΕΤΕ ΝΑ ΜΕ ΣΤΗΡΙΞΕΤΕ,
ΚΑΝΤΕ ΕΝΑ ΛΟΓΑΡΙΑΣΜΟ ΓΙΑ EASYBYTEZ & UPLOADED
ΚΑΙ ΚΑΤΕΒΑΣΤΕ ΣΑΝ PREMIUM ΑΠΟ 20 ΔΙΑΦΟΡΕΤΙΚΟΥΣ HOST.

EasyBytez Premium Accounts

Για Uploaded απο Εδώ. http://ul.to/ref/3276399


Links Easybytez & Uploaded

Spoiler:

http://paste2.org/vxhGfXA1

http://pastebin.com/eFF9GrFc

Αγαπητοί φίλοι πολλές φορές ίσως σε κάποια λίνκ σας βγάζει «Server error»
η προβληματικός πάροχος η σφάλμα plugin έχει λήξει.
Αυτό δεν σημαίνει απαραίτητα ότι τα λίνκ είναι νεκρά. Δοκιμάστε το εξής.
Πάρ΄τε τα λίνκ ή το μονό λίνκ και κατεβάστε το με Browser….Δεξί κλίκ στο λίνκ και άνοιγμα σε νέο παράθυρο…
Θα σας ανοίξει μία καρτελίτσα και εσείς θα πατήσετε αποθήκευση, όχι άνοιγμα…
Αυτόματά το λίνκ θα κατέβει και θα αποθηκευτεί στο φάκελο που εσείς έχετε επιλέξει.

Αφήστε μια απάντηση

Chat - Μόνο Εγγεγραμμένοι Χρήστες
You must be signed in to post a comment
Mr.Planet
(Δευτέρα, Νοέ 12. 2018 11:47 ΜΜ)
σε ευχαριστω για τη ενημερωση takisbol ανεβηκαν νεα λινκς.
Mr.Planet
(Δευτέρα, Νοέ 12. 2018 11:46 ΜΜ)
αγαπητε kost36 η σειρα μπορει να εχει ολοκληθωθει αλλα δεν εχουν μεταφραστει τα τελευταια επεισοδια…
οπως καταλαβαινεις δεν μπορω να κανω κατι…
takisbol
(Δευτέρα, Νοέ 12. 2018 05:17 ΜΜ)
μάλλον υπάρχει πρόβλημα σε μερικά parts στην ταινία THE PREADATOR (2018) HC HDRip XviD AC3-EVO {ενσωμ.υποτ}
kost36
(Κυριακή, Νοέ 11. 2018 05:12 ΜΜ)
αγαπητέ Mr. Planet. η σειρά Taken έχει ολοκληρωθεί από τον ιούνιο. θα ήμουν ευγνώμων αν καταφέρνατε να ανεβάσετε και τα τελευταία 3 επεισόδια ευχαριστώ πολύ…
Mr.Planet
(Πέμπτη, Νοέ 8. 2018 12:19 ΠΜ)
takisbol σε ευχαριστω για την ενημερωση..

1 · 2 · 3 · 4